Lista de Usuarios Etiquetados

Resultados 1 al 2 de 2

Tema: Spider-Man: Un nuevo universo[2018][DVDRip][Multi]

Temas similares

  1. Por El_Ranero en el foro Peque-Cine HD
  2. Por El_Ranero en el foro Peque-Cine HD
  3. Por El_Ranero en el foro Peque-Cine SD
  4. Por El_Ranero en el foro Peque-Series
  5. Por jmr6876tv en el foro Hablemos de Cine
  1. #1
    Avatar de El_Ranero
    Super Moderador
    Reputación:
    39103

    Estado
    Desconectado
    Fecha de ingreso:
    10 abr, 12
    Temas:
    1,734
    Mensajes:
    3,340
    Me Gusta:
    2,269 veces
    Gustado:
    19,507 Veces
    Hora Local:
    05:06
    Mencionado:
    13 Post(s)
    Etiquetado:
    4 Tema(s)
    © PPK

    Descarga Directa Spider-Man: Un nuevo universo[2018][DVDRip][Multi]





    DATOS TECNICOS
    Título original: Spider-Man: Into the Spider-Verse
    Año: 2018
    Duración: 114 min.
    País: Estados Unidos
    Director: Bob Persichetti, Peter Ramsey, Rodney Rothman
    Guion: Phil Lord, Rodney Rothman, Dan Slott, Meghan Malloy (Personajes: Stan Lee, Brian Bendis, Sara Pichelli, Steve Ditko. Historia: Phil Lord)
    Música: Daniel Pemberton
    Género: Animación. Aventuras. Acción. Fantástico | Adolescencia. Superhéroes. Cómic. Marvel Comics


    Reparto: Animation


    Sinopsis
    En un universo paralelo donde Peter Parker ha muerto, un joven de secundaria llamado Miles Morales es el nuevo Spider-Man. Sin embargo, cuando el líder mafioso Wilson Fisk (a.k.a Kingpin) construye el "Super Colisionador" trae a una versión alternativa de Peter Parker que tratará de enseñarle a Miles como ser un mejor Spider-Man. Pero no será el único Spider Man en entrar a este universo, 4 versiones alternas de Spidey aparecerán y buscarán regresar a su universo antes de que toda la realidad colapse.
    Premios
    2018: Premios Oscar: Mejor largometraje de animación
    2018: Globos de Oro: Mejor película de animación
    2018: Premios Annie: 7 premios incluyendo mejor película, director y guion
    2018: Premios BAFTA: Mejor película de animación
    2018: Círculo de Críticos de Nueva York: Mejor película animada
    2018: Asociación de críticos de Los Angeles: Mejor película de animación
    2018: Critics Choice Awards: Mejor film de animación
    2018: Asociación de Críticos de Chicago: Mejor film de animación
    2018: Sindicato de Productores (PGA): Mejor película de animación


    Datos del Ripeo


    General
    Complete name : /mnt/Disco 3/Descargas/3-Preparadas para subir/Spider Man Universo Nuevo DVDR .avi
    Format : AVI
    Format/Info : Audio Video Interleave
    File size : 1.27 GiB
    Duration : 1 h 56 min
    Overall bit rate : 1 556 kb/s
    Writing application : VirtualDubMod 1.5.10.2 (build 2540/release)
    Writing library : VirtualDubMod build 2540/release


    Video
    ID : 0
    Format : MPEG-4 Visual
    Format profile : Advanced Simple@L5
    Format settings : BVOP2
    Format settings, BVOP : 2
    Format settings, QPel : No
    Format settings, GMC : No warppoints
    Format settings, Matrix : Default (H.263)
    Codec ID : XVID
    Codec ID/Hint : XviD
    Duration : 1 h 56 min
    Bit rate : 1 099 kb/s
    Width : 720 pixels
    Height : 304 pixels
    Display aspect ratio : 2.35:1
    Frame rate : 23.976 (24000/1001) FPS
    Color space : YUV
    Chroma subsampling : 4:2:0
    Bit depth : 8 bits
    Scan type : Progressive
    Compression mode : Lossy
    Bits/(Pixel*Frame) : 0.209
    Stream size : 918 MiB (71%)
    Writing library : XviD 67


    Audio
    ID : 1
    Format : AC-3
    Format/Info : Audio Coding 3
    Codec ID : 2000
    Duration : 1 h 56 min
    Bit rate mode : Constant
    Bit rate : 448 kb/s
    Channel(s) : 6 channels
    Channel positions : Front: L C R, Side: L R, LFE
    Sampling rate : 48.0 kHz
    Frame rate : 31.250 FPS (1536 SPF)
    Bit depth : 16 bits
    Compression mode : Lossy
    Stream size : 374 MiB (29%)
    Alignment : Split accross interleaves
    Interleave, duration : 42 ms (1.00 video frame)
    Interleave, preload duration : 500 ms
    Service kind : Complete Main


    ¡







    **Contenido Oculto: Debes Responder o dar "Me Gusta" para ver el contenido**



    Última edición por El_Ranero; 30/04/2019 a las 22:33
    Cualquier problema con mis aportes, por MP añadiendo el enlace del aporte



  2. Agradecidos


  3. #2
    Avatar de acasask
    Usuario
    Reputación:
    2

    Estado
    Desconectado
    Fecha de ingreso:
    23 mar, 19
    País:
    Spain
    Temas:
    0
    Mensajes:
    14
    Mi Catálogo:
    Visítalo
    Me Gusta:
    21 veces
    Gustado:
    1 Vez
    Hora Local:
    05:06
    Mencionado:
    0 Post(s)
    Etiquetado:
    0 Tema(s)
    © PPK
    gracias

    - - - Doble mensaje - - -

    Gracias por el aporte

Permisos de publicación

  • No puedes crear nuevos temas
  • No puedes responder temas
  • No puedes subir archivos adjuntos
  • No puedes editar tus mensajes
  •