Lista de Usuarios Etiquetados

Resultados 1 al 9 de 9

Tema: Spider-Man: Un nuevo universo[2018][m720p][Multi]

Temas similares

  1. Por El_Ranero en el foro Peque-Cine HD
  2. Por kuintus en el foro Cine Actual HD
  3. Por jmr6876tv en el foro Hablemos de Cine
  4. Por kuintus en el foro Cine Actual HD
  5. Por kuintus en el foro Cine Actual HD
  1. #1
    Avatar de El_Ranero
    Super Moderador
    Reputación:
    35302

    Estado
    Desconectado
    Fecha de ingreso:
    10 abr, 12
    Temas:
    1,601
    Mensajes:
    3,193
    Me Gusta:
    2,282 veces
    Gustado:
    17,614 Veces
    Hora Local:
    10:46
    Mencionado:
    11 Post(s)
    Etiquetado:
    4 Tema(s)
    © PPK

    Descarga Directa Spider-Man: Un nuevo universo[2018][m720p][Multi]





    DATOS TECNICOS
    Título original: Spider-Man: Into the Spider-Verse
    Año: 2018
    Duración: 114 min.
    País: Estados Unidos
    Director: Bob Persichetti, Peter Ramsey, Rodney Rothman
    Guion: Phil Lord, Rodney Rothman, Dan Slott, Meghan Malloy (Personajes: Stan Lee, Brian Bendis, Sara Pichelli, Steve Ditko. Historia: Phil Lord)
    Música: Daniel Pemberton
    Género: Animación. Aventuras. Acción. Fantástico | Adolescencia. Superhéroes. Cómic. Marvel Comics


    Reparto: Animation


    Sinopsis
    En un universo paralelo donde Peter Parker ha muerto, un joven de secundaria llamado Miles Morales es el nuevo Spider-Man. Sin embargo, cuando el líder mafioso Wilson Fisk (a.k.a Kingpin) construye el "Super Colisionador" trae a una versión alternativa de Peter Parker que tratará de enseñarle a Miles como ser un mejor Spider-Man. Pero no será el único Spider Man en entrar a este universo, 4 versiones alternas de Spidey aparecerán y buscarán regresar a su universo antes de que toda la realidad colapse.
    Premios
    2018: Premios Oscar: Mejor largometraje de animación
    2018: Globos de Oro: Mejor película de animación
    2018: Premios Annie: 7 premios incluyendo mejor película, director y guion
    2018: Premios BAFTA: Mejor película de animación
    2018: Círculo de Críticos de Nueva York: Mejor película animada
    2018: Asociación de críticos de Los Angeles: Mejor película de animación
    2018: Critics Choice Awards: Mejor film de animación
    2018: Asociación de Críticos de Chicago: Mejor film de animación
    2018: Sindicato de Productores (PGA): Mejor película de animación


    Datos del Ripeo


    General
    Unique ID : 315739919636279700851484320404541423540 (0xED894BED195592EFF687AFDE4C163FB4)
    Complete name : /mnt/Disco 3/Descargas/3-Preparadas para subir/Spider Man Universo Nuevo m720p .mkv
    Format : Matroska
    Format version : Version 4 / Version 2
    File size : 2.88 GiB
    Duration : 1 h 56 min
    Overall bit rate : 3 531 kb/s
    Movie name : El_Ranero
    Encoded date : UTC 2019-03-16 05:39:27
    Writing application : mkvmerge v32.0.0 ('Astral Progressions') 64-bit
    Writing library : libebml v1.3.7 + libmatroska v1.5.0


    Video
    ID : 1
    Format : AVC
    Format/Info : Advanced Video Codec
    Format profile : High@L4.1
    Format settings : CABAC / 5 Ref Frames
    Format settings, CABAC : Yes
    Format settings, ReFrames : 5 frames
    Codec ID : V_MPEG4/ISO/AVC
    Duration : 1 h 56 min
    Bit rate : 2 505 kb/s
    Width : 1 280 pixels
    Height : 536 pixels
    Display aspect ratio : 2.40:1
    Frame rate mode : Constant
    Frame rate : 23.976 (24000/1001) FPS
    Color space : YUV
    Chroma subsampling : 4:2:0
    Bit depth : 8 bits
    Scan type : Progressive
    Bits/(Pixel*Frame) : 0.152
    Stream size : 2.04 GiB (71%)
    Writing library : x264 core 157 r2935 545de2f
    Encoding settings : cabac=1 / ref=5 / deblock=10 / analyse=0x3:0x133 / me=umh / subme=7 / psy=1 / psy_rd=1.00:0.00 / mixed_ref=1 / me_range=16 / chroma_me=1 / trellis=1 / 8x8dct=1 / cqm=0 / deadzone=21,11 / fast_pskip=0 / chroma_qp_offset=-2 / threads=17 / lookahead_threads=2 / sliced_threads=0 / nr=0 / decimate=1 / interlaced=0 / bluray_compat=0 / constrained_intra=0 / bframes=3 / b_pyramid=2 / b_adapt=1 / b_bias=0 / direct=1 / weightb=1 / open_gop=0 / weightp=2 / keyint=250 / keyint_min=23 / scenecut=40 / intra_refresh=0 / rc_lookahead=40 / rc=2pass / mbtree=1 / bitrate=2505 / ratetol=1.0 / qcomp=0.60 / qpmin=0 / qpmax=69 / qpstep=4 / cplxblur=20.0 / qblur=0.5 / ip_ratio=1.40 / aq=1:1.00
    Language : English
    Default : Yes
    Forced : No


    Audio #1
    ID : 2
    Format : AC-3
    Format/Info : Audio Coding 3
    Codec ID : A_AC3
    Duration : 1 h 56 min
    Bit rate mode : Constant
    Bit rate : 640 kb/s
    Channel(s) : 6 channels
    Channel positions : Front: L C R, Side: L R, LFE
    Sampling rate : 48.0 kHz
    Frame rate : 31.250 FPS (1536 SPF)
    Bit depth : 16 bits
    Compression mode : Lossy
    Stream size : 535 MiB (18%)
    Language : Spanish
    Service kind : Complete Main
    Default : Yes
    Forced : No


    Audio #2
    ID : 3
    Format : AC-3
    Format/Info : Audio Coding 3
    Codec ID : A_AC3
    Duration : 1 h 56 min
    Bit rate mode : Constant
    Bit rate : 384 kb/s
    Channel(s) : 6 channels
    Channel positions : Front: L C R, Side: L R, LFE
    Sampling rate : 48.0 kHz
    Frame rate : 31.250 FPS (1536 SPF)
    Bit depth : 16 bits
    Compression mode : Lossy
    Stream size : 321 MiB (11%)
    Language : English
    Service kind : Complete Main
    Default : No
    Forced : No


    Text #1
    ID : 4
    Format : UTF-8
    Codec ID : S_TEXT/UTF8
    Codec ID/Info : UTF-8 Plain Text
    Duration : 1 h 42 min
    Bit rate : 1 b/s
    Count of elements : 29
    Stream size : 825 Bytes (0%)
    Language : Spanish
    Default : Yes
    Forced : No


    Text #2
    ID : 5
    Format : UTF-8
    Codec ID : S_TEXT/UTF8
    Codec ID/Info : UTF-8 Plain Text
    Duration : 1 h 55 min
    Bit rate : 53 b/s
    Count of elements : 1376
    Stream size : 45.3 KiB (0%)
    Language : Spanish
    Default : No
    Forced : No


    Text #3
    ID : 6
    Format : UTF-8
    Codec ID : S_TEXT/UTF8
    Codec ID/Info : UTF-8 Plain Text
    Duration : 1 h 55 min
    Bit rate : 70 b/s
    Count of elements : 1638
    Stream size : 59.6 KiB (0%)
    Language : English
    Default : No
    Forced : No


    Menu
    00:00:00.000 : en:Chapter 01
    00:09:03.793 : en:Chapter 02
    00:14:04.719 : en:Chapter 03
    0051.714 : en:Chapter 04
    00:29:39.027 : en:Chapter 05
    00:34:14.636 : en:Chapter 06
    00:40:34.432 : en:Chapter 07
    00:44:22.827 : en:Chapter 08
    00:48:06.884 : en:Chapter 09
    00:58:45.855 : en:Chapter 10
    01:06:04.460 : en:Chapter 11
    01:09:55.483 : en:Chapter 12
    01:20:00.003 : en:Chapter 13
    01:24:54.923 : en:Chapter 14
    01:33:33.399 : en:Chapter 15
    01:55:26.920 : en:Chapter 16


    






    **Contenido Oculto: Debes Responder o dar "Me Gusta" para ver el contenido**



    Cualquier problema con mis aportes, por MP



  2. Agradecidos


  3. #2
    Avatar de cuenk
    Super Usuario
    Reputación:
    184

    Estado
    Conectado
    Fecha de ingreso:
    01 ago, 18
    País:
    Spain
    Temas:
    2
    Mensajes:
    125
    Mi Catálogo:
    Visítalo
    Me Gusta:
    233 veces
    Gustado:
    87 Veces
    Hora Local:
    10:46
    Mencionado:
    5 Post(s)
    Etiquetado:
    0 Tema(s)
    © PPK
    A mis hijos les encantara, gracias ranero

    Nota mental: A colao, como nadie me conoce no saben que no tengo hijos y soy yo quien quiere ver la peli jijijij, eres un genio!

    jejeje

  4. Agradecido


  5. #3
    Avatar de El_Ranero
    Super Moderador
    Reputación:
    35302

    Estado
    Desconectado
    Fecha de ingreso:
    10 abr, 12
    Temas:
    1,601
    Mensajes:
    3,193
    Me Gusta:
    2,282 veces
    Gustado:
    17,614 Veces
    Hora Local:
    10:46
    Mencionado:
    11 Post(s)
    Etiquetado:
    4 Tema(s)
    © PPK
    Cita Iniciado por cuenk Ver mensaje


    Nota mental: A colao, como nadie me conoce no saben que no tengo hijos y soy yo quien quiere ver la peli jijijij, eres un genio!

    jejeje

    Cualquier problema con mis aportes, por MP



  6. Agradecido


  7. #4
    Avatar de totelin25
    Usuario
    Reputación:
    10

    Estado
    Desconectado
    Fecha de ingreso:
    09 mar, 19
    País:
    Spain
    Temas:
    0
    Mensajes:
    5
    Mi Catálogo:
    Visítalo
    Me Gusta:
    0 veces
    Gustado:
    0 Veces
    Hora Local:
    10:46
    Mencionado:
    0 Post(s)
    Etiquetado:
    0 Tema(s)
    © PPK
    gracias

  8. #5
    Avatar de pegasomarea
    Usuario
    Reputación:
    12

    Estado
    Desconectado
    Fecha de ingreso:
    16 feb, 19
    País:
    Spain
    Temas:
    0
    Mensajes:
    5
    Mi Catálogo:
    Visítalo
    Me Gusta:
    0 veces
    Gustado:
    1 Vez
    Hora Local:
    10:46
    Mencionado:
    0 Post(s)
    Etiquetado:
    0 Tema(s)
    © PPK
    Muchas gracias por Spider-Man: Un nuevo universo. Estaba deseando verla.

  9. #6
    Avatar de H.Poirot
    Super Usuario
    Reputación:
    186

    Estado
    Desconectado
    Fecha de ingreso:
    12 nov, 18
    País:
    Spain
    Temas:
    0
    Mensajes:
    290
    Mi Catálogo:
    Visítalo
    Me Gusta:
    0 veces
    Gustado:
    84 Veces
    Hora Local:
    03:46
    Mencionado:
    0 Post(s)
    Etiquetado:
    0 Tema(s)
    © PPK
    Muchas gracias, fantástica adaptación y animación; no me gustó el protagonismo que se dió a algunos villanos y salvo tu mejor opinión es una película casi redonda.

  10. #7
    Avatar de phady
    Usuario
    Reputación:
    10

    Estado
    Desconectado
    Fecha de ingreso:
    29 oct, 12
    País:
    Spain
    Temas:
    1
    Mensajes:
    4
    Me Gusta:
    1 veces
    Gustado:
    0 Veces
    Hora Local:
    10:46
    Mencionado:
    0 Post(s)
    Etiquetado:
    0 Tema(s)
    © PPK
    muchas gracias por el aporte

  11. #8
    Avatar de felpegu
    Miembro PPK
    Reputación:
    38

    Estado
    Desconectado
    Fecha de ingreso:
    04 mar, 18
    País:
    Spain
    Temas:
    0
    Mensajes:
    63
    Mi Catálogo:
    Visítalo
    Me Gusta:
    3 veces
    Gustado:
    14 Veces
    Hora Local:
    10:46
    Mencionado:
    0 Post(s)
    Etiquetado:
    0 Tema(s)
    © PPK
    gracias por el aporte a mi hijo le encanto

  12. #9
    Avatar de mingaken
    Usuario
    Reputación:
    20

    Estado
    Desconectado
    Fecha de ingreso:
    05 ago, 18
    País:
    Spain
    Temas:
    0
    Mensajes:
    17
    Mi Catálogo:
    Visítalo
    Me Gusta:
    31 veces
    Gustado:
    5 Veces
    Hora Local:
    10:46
    Mencionado:
    0 Post(s)
    Etiquetado:
    0 Tema(s)
    © PPK
    Uoooohhh... ^^. Luego me intentaré pegar a las paredes y seguro que alguien me dará un zapatillazo pensando que soy una cucaracha. Pero bueno, seguro que así empezó también Spider-man.
    ¡Gracias!

Permisos de publicación

  • No puedes crear nuevos temas
  • No puedes responder temas
  • No puedes subir archivos adjuntos
  • No puedes editar tus mensajes
  •