Lista de Usuarios Etiquetados

Resultados 1 al 7 de 7
  1. #1

    Fecha de ingreso
    11 abr, 12
    Reputación
    28159
    País
    Spain
    Temas
    1,800
    Mensajes
    6,423
    Mi Catálogo
    Visítalo
    Me Gusta
    5,803 Veces
    Gustado
    13,882 Veces
    Hora Local
    04:22
    Mencionado
    119 Post(s)
    Etiquetado
    6 Tema(s)

    Descarga Directa La lucha de los dioses (10/10) (2009) (SatRip) [UB]






    Título original: Clash of the Gods
    Año: 2009
    País: USA
    Productora: KPI para Canal Historia
    Género: Mitología
    Episodios: 10
    Idioma: Castellano
    Calidad: SatRip
    Formato: avi
    Tamaño: 500 Mb por cap.


    MediaInfo
    Código
     
    General
    Complete name                  : @:\La Lucha de los Dioses - 01 Hercules.avi
    Format                         : AVI
    Format/Info                    : Audio Video Interleave
    File size                      : 501 MiB
    Duration                       : 44 min 54 s
    Overall bit rate               : 1 558 kb/s
    Writing application            : VirtualDubMod 1.5.10.2 (build 2540/release)
    Writing library                : VirtualDubMod build 2540/release
    
    
    Video
    ID                             : 0
    Format                         : MPEG-4 Visual
    Format profile                 : Advanced Simple@L5
    Format settings, BVOP          : 2
    Format settings, QPel          : No
    Format settings, GMC           : No warppoints
    Format settings, Matrix        : Default (H.263)
    Codec ID                       : XVID
    Codec ID/Hint                  : XviD
    Duration                       : 44 min 54 s
    Bit rate                       : 1 420 kb/s
    Width                          : 640 pixels
    Height                         : 368 pixels
    Display aspect ratio           : 1.739
    Frame rate                     : 25.000 FPS
    Color space                    : YUV
    Chroma subsampling             : 4:2:0
    Bit depth                      : 8 bits
    Scan type                      : Progressive
    Compression mode               : Lossy
    Bits/(Pixel*Frame)             : 0.241
    Stream size                    : 456 MiB (91%)
    Writing library                : XviD 1.1.2 (UTC 2006-11-01)
    
    
    Audio
    ID                             : 1
    Format                         : MPEG Audio
    Format version                 : Version 1
    Format profile                 : Layer 3
    Mode                           : Joint stereo
    Mode extension                 : MS Stereo
    Codec ID                       : 55
    Codec ID/Hint                  : MP3
    Duration                       : 44 min 54 s
    Bit rate mode                  : Constant
    Bit rate                       : 128 kb/s
    Channel(s)                     : 2 channels
    Sampling rate                  : 48.0 kHz
    Compression mode               : Lossy
    Stream size                    : 41.1 MiB (8%)
    Alignment                      : Aligned on interleaves
    Interleave, duration           : 40  ms (1.00 video frame)
    Interleave, preload duration   : 504  ms



    Desde la antigüedad, siempre ha existido el mito de la eterna lucha del bien y el mal. Las diferentes mitologías siempre sirvieron como una guía para cada sociedad, expresando sus valores, creencias y aspiraciones. Cada capítulo profundiza en diferentes personajes de estos fantásticos mundos: El Laberinto del Minotauro, Thor, Beowulf, Medusa, Zeus, Hércules... Invitando al espectador a conocer la Furia de los Dioses.





    **Contenido Oculto: Debes Responder o dar "Me Gusta" para ver el contenido**

  2. Agradecidos


  3. #2

    Fecha de ingreso
    26 oct, 17
    Reputación
    2
    País
    Spain
    Temas
    0
    Mensajes
    9
    Mi Catálogo
    Visítalo
    Me Gusta
    161 Veces
    Gustado
    0 Veces
    Hora Local
    04:22
    Mencionado
    0 Post(s)
    Etiquetado
    0 Tema(s)
    me gusta

  4. #3

    Fecha de ingreso
    09 ago, 18
    Reputación
    22
    País
    Spain
    Temas
    0
    Mensajes
    24
    Mi Catálogo
    Visítalo
    Me Gusta
    2 Veces
    Gustado
    6 Veces
    Hora Local
    04:22
    Mencionado
    0 Post(s)
    Etiquetado
    0 Tema(s)
    Gracias

  5. #4

    Fecha de ingreso
    25 feb, 14
    Reputación
    30
    País
    Spain
    Temas
    0
    Mensajes
    8
    Me Gusta
    40 Veces
    Gustado
    10 Veces
    Hora Local
    04:22
    Mencionado
    0 Post(s)
    Etiquetado
    0 Tema(s)
    Gracias por los documentales.
    Saludos.
    Última edición por heroes08; 10/11/2018 a las 11:55 Razón: error

  6. Agradecido


  7. #5

    Fecha de ingreso
    15 feb, 19
    Reputación
    20
    País
    Spain
    Temas
    4
    Mensajes
    29
    Mi Catálogo
    Visítalo
    Me Gusta
    51 Veces
    Gustado
    18 Veces
    Hora Local
    05:22
    Mencionado
    0 Post(s)
    Etiquetado
    0 Tema(s)
    Holii no soy un acosador , solo que todos los documentales que subes parecen muy interesantes.

    Un saludete

  8. #6

    Fecha de ingreso
    12 nov, 18
    Reputación
    186
    País
    Spain
    Temas
    0
    Mensajes
    288
    Mi Catálogo
    Visítalo
    Me Gusta
    0 Veces
    Gustado
    84 Veces
    Hora Local
    21:22
    Mencionado
    0 Post(s)
    Etiquetado
    0 Tema(s)
    Muchas gracias.

  9. #7

    Fecha de ingreso
    17 mar, 19
    Reputación
    10
    País
    Spain
    Temas
    0
    Mensajes
    2
    Mi Catálogo
    Visítalo
    Me Gusta
    0 Veces
    Gustado
    0 Veces
    Hora Local
    04:22
    Mencionado
    0 Post(s)
    Etiquetado
    0 Tema(s)
    gracias!!

 

 

Temas similares

  1. Respuestas: 16
    Último mensaje: 31/01/2019, 07:20
  2. Respuestas: 14
    Último mensaje: 09/01/2019, 13:22
  3. El arma secreta de Japón (2009) (SatRip) [UB]
    Por Awa en el foro Descargas de Documentales
    Respuestas: 2
    Último mensaje: 31/01/2018, 16:26

Permisos de publicación

  • No puedes crear nuevos temas
  • No puedes responder temas
  • No puedes subir archivos adjuntos
  • No puedes editar tus mensajes
  •