Lista de Usuarios Etiquetados

Novedades de Black Rose

Peque-Series

Página 5 de 5 PrimerPrimer ... 345
Resultados 41 al 44 de 44

Tema: La Patrulla Canina 2ª Temporada (HDRip + DVB) (Dual) (UB/1F)

Temas similares

  1. Por OLMID en el foro Peque-Series
  2. Por OLMID en el foro Peque-Series
  3. Por Black Rose en el foro Peque-Series
  1. #1
    Avatar de Black Rose
    Super Usuario
    Reputación:
    2814

    Estado
    Desconectado
    Fecha de ingreso:
    08 abr, 15
    País:
    Spain
    Temas:
    433
    Mensajes:
    811
    Mi Catálogo:
    Visítalo
    Me Gusta:
    0 veces
    Gustado:
    1,394 Veces
    Hora Local:
    14:42
    Mencionado:
    0 Post(s)
    Etiquetado:
    0 Tema(s)
    © PPK

    Descarga Directa La Patrulla Canina 2ª Temporada (HDRip + DVB) (Dual) (UB/1F)

    La Patrulla Canina











    AVISO: El BBCode FFA dejó de funcionar, por favor elimínalo. Gracias










    Info
    Código
     
    General
    Complete name               : 2x01 La Patrulla Canina. La patrulla salva a un alienigena + la patrulla salva a una rana voladora [HDRip + DVB Dual] PPK by Black Rose.avi
    Format                      : AVI
    Format/Info                 : Audio Video Interleave
    File size                   : 357 MiB
    Duration                    : 22mn 40s
    Overall bit rate            : 2 198 Kbps
    Movie name                  : 2x01 La Patrulla Canina. La patrulla salva a un alienigena + la patrulla salva a una rana voladora [HDRip + DVB Dual] PPK by Black Rose
    Writing application         : VirtualDubMod 1.5.10.2 (build 2542/release)
    Writing library             : VirtualDubMod build 2542/release
    
    Video
    ID                          : 0
    Format                      : MPEG-4 Visual
    Format profile              : Advanced Simple@L5
    Format settings, BVOP       : 2
    Format settings, QPel       : No
    Format settings, GMC        : No warppoints
    Format settings, Matrix     : Default (H.263)
    Codec ID                    : XVID
    Codec ID/Hint               : XviD
    Duration                    : 22mn 40s
    Bit rate                    : 1 800 Kbps
    Width                       : 720 pixels
    Height                      : 400 pixels
    Display aspect ratio        : 16:9
    Frame rate                  : 23.976 (23976/1000) fps
    Color space                 : YUV
    Chroma subsampling          : 4:2:0
    Bit depth                   : 8 bits
    Scan type                   : Progressive
    Compression mode            : Lossy
    Bits/(Pixel*Frame)          : 0.261
    Stream size                 : 292 MiB (82%)
    Writing library             : XviD 1.2.1 (UTC 2008-12-04)
    
    Audio #1
    ID                          : 1
    Format                      : AC-3
    Format/Info                 : Audio Coding 3
    Mode extension              : CM (complete main)
    Format settings, Endianness : Big
    Codec ID                    : 2000
    Duration                    : 22mn 40s
    Bit rate mode               : Constant
    Bit rate                    : 192 Kbps
    Channel(s)                  : 2 channels
    Channel positions           : Front: L R
    Sampling rate               : 48.0 KHz
    Frame rate                  : 31.250 fps (1536 spf)
    Compression mode            : Lossy
    Stream size                 : 31.1 MiB (9%)
    Alignment                   : Split accross interleaves
    Interleave, duration        : 42 ms (1.00 video frame)
    Interleave, preload duratio : 500 ms
    
    Audio #2
    ID                          : 2
    Format                      : AC-3
    Format/Info                 : Audio Coding 3
    Mode extension              : CM (complete main)
    Format settings, Endianness : Big
    Codec ID                    : 2000
    Duration                    : 22mn 40s
    Bit rate mode               : Constant
    Bit rate                    : 192 Kbps
    Channel(s)                  : 2 channels
    Channel positions           : Front: L R
    Sampling rate               : 48.0 KHz
    Frame rate                  : 31.250 fps (1536 spf)
    Compression mode            : Lossy
    Stream size                 : 31.1 MiB (9%)
    Alignment                   : Split accross interleaves
    Interleave, duration        : 42 ms (1.00 video frame)
    Interleave, preload duratio : 500 ms















    **Contenido Oculto: Debes Responder o dar "Me Gusta" para ver el contenido**
    **Contenido Oculto: Debes Responder o dar "Me Gusta" para ver el contenido**





    Para descargar tener abierto JD2 o Mipony



    Si ven algún aporte caído avisar en el post

  2. Agradecidos


  3. #41
    Avatar de piepie
    Usuario
    Reputación:
    10

    Estado
    Desconectado
    Fecha de ingreso:
    06 sep, 17
    País:
    Spain
    Temas:
    0
    Mensajes:
    3
    Mi Catálogo:
    Visítalo
    Me Gusta:
    0 veces
    Gustado:
    0 Veces
    Hora Local:
    13:42
    Mencionado:
    0 Post(s)
    Etiquetado:
    0 Tema(s)
    © PPK
    Gracias!, fantastico

  4. #42
    Avatar de Virgil el Turco
    Usuario
    Reputación:
    10

    Estado
    Desconectado
    Fecha de ingreso:
    14 jul, 19
    País:
    Spain
    Temas:
    1
    Mensajes:
    11
    Mi Catálogo:
    Visítalo
    Me Gusta:
    1 veces
    Gustado:
    0 Veces
    Hora Local:
    13:42
    Mencionado:
    0 Post(s)
    Etiquetado:
    0 Tema(s)
    © PPK
    Muchas gracias. 1 Fitcher esta caído. El otro server esta online.

  5. #43
    Avatar de Pukel
    Usuario
    Reputación:
    2

    Estado
    Desconectado
    Fecha de ingreso:
    12 ene, 20
    País:
    Spain
    Temas:
    0
    Mensajes:
    4
    Mi Catálogo:
    Visítalo
    Me Gusta:
    0 veces
    Gustado:
    1 Vez
    Hora Local:
    14:42
    Mencionado:
    0 Post(s)
    Etiquetado:
    0 Tema(s)
    © PPK
    Gracias!! pero me da que no van a estar disponibles jejejeej

  6. #44
    Avatar de JOSECUATMOLE
    Miembro PPK
    Reputación:
    7

    Estado
    Desconectado
    Fecha de ingreso:
    31 ene, 20
    País:
    Spain
    Temas:
    0
    Mensajes:
    46
    Mi Catálogo:
    Visítalo
    Me Gusta:
    1 veces
    Gustado:
    1 Vez
    Hora Local:
    13:42
    Mencionado:
    0 Post(s)
    Etiquetado:
    0 Tema(s)
    © PPK
    Buena serie

Página 5 de 5 PrimerPrimer ... 345

Permisos de publicación

  • No puedes crear nuevos temas
  • No puedes responder temas
  • No puedes subir archivos adjuntos
  • No puedes editar tus mensajes
  •